X+Y (2014)

NRGenre: Drama
Quality: Year: Duration: 111 Min
450 votes, average 6.7 out of 10

Download X+Y (2014)

In X Plus Y (2014), A socially awkward teenage math prodigy finds new confidence and new friendships when he lands a spot on the British squad at the International Mathematics Olympiad.

Meta Info
Format : Matroska Format version : Version 4 / Version 2 File size : 887 MiB Duration : 1 h 51 min Overall bit rate : 1 113 kb/s Encoded date : UTC 2021-10-20 12:17:50 Writing application : mkvmerge v61.0.0 ('So') 64-bit Writing library : libebml v1.4.2 + libmatroska v1.6.4 Video ID : 1 Format : AVC Format/Info : Advanced Video Codec Format profile : [email protected] Format settings, CABAC : Yes Format settings, ReFrames : 4 frames Codec ID : V_MPEG4/ISO/AVC Duration : 1 h 51 min Bit rate : 950 kb/s Width : 1 910 pixels Height : 800 pixels Display aspect ratio : 2.40:1 Frame rate mode : Constant Frame rate : 24.000 FPS Color space : YUV Chroma subsampling : 4:2:0 Bit depth : 8 bits Scan type : Progressive Bits/(Pixel*Frame) : 0.026 Stream size : 756 MiB (85%) Writing library : x264 core 142 r2479 dd79a61 Default : Yes Forced : No Color range : Limited Color primaries : BT.709 Transfer characteristics : BT.709 Matrix coefficients : BT.709 Audio ID : 2 Format : AAC Format/Info : Advanced Audio Codec Format profile : LC Codec ID : A_AAC Duration : 1 h 51 min Bit rate : 162 kb/s Channel(s) : 2 channels Channel positions : Front: L R Sampling rate : 48.0 kHz Frame rate : 46.875 FPS (1024 spf) Compression mode : Lossy Delay relative to video : -21 ms Stream size : 129 MiB (15%) Title : Stereo Language : English Default : Yes Forced : No
Screen Shots
Tagline:True genius comes from opening your heart
Release:
Language:English