The Book of Vision (2021)

Genre: Drama, History
Quality: Year: Duration: 100 Min
6 votes, average 6.3 out of 10

Download The Book of Vision (2021)

Eva, a mysterious doctor, searches for an answer to her urgent dilemma as she unravels Dr. Anmuth’s Book of Vision. Henry gets involved in her life and is forced to confront his own nature, as Eva faces the biggest decision of her life.

Meta Info
Format : Matroska Format version : Version 4 / Version 2 File size : 959 MiB Duration : 1 h 38 min Overall bit rate : 1 360 kb/s Encoded date : UTC 2021-11-15 19:35:37 Writing application : mkvmerge v61.0.0 ('So') 64-bit Writing library : libebml v1.4.2 + libmatroska v1.6.4 Video ID : 1 Format : AVC Format/Info : Advanced Video Codec Format profile : [email protected] Format settings, CABAC : Yes Format settings, ReFrames : 9 frames Codec ID : V_MPEG4/ISO/AVC Duration : 1 h 38 min Bit rate : 1 200 kb/s Width : 1 280 pixels Height : 720 pixels Display aspect ratio : 2.40:1 Frame rate mode : Constant Frame rate : 24.000 FPS Color space : YUV Chroma subsampling : 4:2:0 Bit depth : 8 bits Scan type : Progressive Bits/(Pixel*Frame) : 0.054 Stream size : 845 MiB (88%) Writing library : x264 core 163 r3059 b684ebe0 Default : Yes Forced : No Color range : Limited Color primaries : BT.709 Transfer characteristics : BT.709 Matrix coefficients : BT.709 Audio ID : 2 Format : AAC Format/Info : Advanced Audio Codec Format profile : LC Codec ID : A_AAC Duration : 1 h 38 min Bit rate : 159 kb/s Channel(s) : 2 channels Channel positions : Front: L R Sampling rate : 48.0 kHz Frame rate : 46.875 FPS (1024 spf) Compression mode : Lossy Delay relative to video : -21 ms Stream size : 112 MiB (12%) Language : English Default : Yes Forced : No
Screenshot's
Release:
Language:English

Leave a Reply

Your email address will not be published. Required fields are marked *