Shang-Chi and the Legend of the Ten Rings (2021)

PG-13Genre: Action, Adventure, Fantasy
Quality: Year: Duration: 132 Min
1414 votes, average 7.7 out of 10

Download Shang-Chi and the Legend of the Ten Rings (2021)

Shang-Chi must confront the past he thought he left behind when he is drawn into the web of the mysterious Ten Rings organization.

Meta Info
Format : Matroska Format version : Version 4 / Version 2 File size : 1.03 GiB Duration : 2 h 12 min Overall bit rate : 1 112 kb/s Encoded date : UTC 2021-11-10 00:21:55 Writing application : mkvmerge v61.0.0 ('So') 64-bit Writing library : libebml v1.4.2 + libmatroska v1.6.4 Video ID : 1 Format : AVC Format/Info : Advanced Video Codec Format profile : [email protected] Format settings, CABAC : Yes Format settings, ReFrames : 12 frames Codec ID : V_MPEG4/ISO/AVC Duration : 2 h 12 min Bit rate : 950 kb/s Width : 1 280 pixels Height : 536 pixels Display aspect ratio : 2.40:1 Frame rate mode : Constant Frame rate : 23.976 (24000/1001) FPS Color space : YUV Chroma subsampling : 4:2:0 Bit depth : 8 bits Scan type : Progressive Bits/(Pixel*Frame) : 0.058 Stream size : 899 MiB (85%) Writing library : x264 core 142 r2479 dd79a61 Default : Yes Forced : No Color range : Limited Color primaries : BT.709 Transfer characteristics : BT.709 Matrix coefficients : BT.709 Audio ID : 2 Format : AAC Format/Info : Advanced Audio Codec Format profile : LC Codec ID : A_AAC Duration : 2 h 12 min Bit rate : 160 kb/s Channel(s) : 2 channels Channel positions : Front: L R Sampling rate : 48.0 kHz Frame rate : 46.875 FPS (1024 spf) Compression mode : Lossy Delay relative to video : -21 ms Stream size : 152 MiB (14%) Language : English Default : Yes Forced : No
Subtitles
Screenshot's
Tagline:You can’t outrun your destiny.
Country:
Release:
Language:English, 普通话
Budget:$ 150.000.000,00
Revenue:$ 427.480.601,00

Leave a Reply

Your email address will not be published. Required fields are marked *