Rogue One: A Star Wars Story (2016)

Quality: Year: Duration: 133 Min
12759 votes, average 7.5 out of 10

Download Rogue One: A Star Wars Story (2016)

A rogue band of resistance fighters unite for a mission to steal the Death Star plans and bring a new hope to the galaxy.

Meta Info
General Format : Matroska Format version : Version 4 / Version 2 File size : 1.04 GiB Duration : 2 h 13 min Overall bit rate : 1 113 kb/s Encoded date : UTC 2021-10-30 02:44:12 Writing application : mkvmerge v61.0.0 ('So') 64-bit Writing library : libebml v1.4.2 + libmatroska v1.6.4 Video ID : 1 Format : AVC Format/Info : Advanced Video Codec Format profile : [email protected] Format settings, CABAC : Yes Format settings, ReFrames : 5 frames Codec ID : V_MPEG4/ISO/AVC Duration : 2 h 13 min Bit rate : 950 kb/s Width : 1 910 pixels Height : 800 pixels Display aspect ratio : 2.40:1 Frame rate mode : Constant Frame rate : 23.976 (24000/1001) FPS Color space : YUV Chroma subsampling : 4:2:0 Bit depth : 8 bits Scan type : Progressive Bits/(Pixel*Frame) : 0.026 Stream size : 910 MiB (85%) Writing library : x264 core 142 r2479 dd79a61 Default : Yes Forced : No Color range : Limited Color primaries : BT.709 Transfer characteristics : BT.709 Matrix coefficients : BT.709 Audio ID : 2 Format : AAC Format/Info : Advanced Audio Codec Format profile : LC Codec ID : A_AAC Duration : 2 h 13 min Bit rate : 161 kb/s Channel(s) : 2 channels Channel positions : Front: L R Sampling rate : 48.0 kHz Frame rate : 46.875 FPS (1024 spf) Compression mode : Lossy Delay relative to video : -21 ms Stream size : 154 MiB (14%) Language : English Default : Yes Forced : No
Screen Shots
Tagline:A Rebellion Built on Hope
Country:
Release:
Language:English
Budget:$ 200.000.000,00
Revenue:$ 1.056.057.273,00