No Time to Die (2021)

No Time to Die (2021)

PG-13Genre: Action, Adventure, Thriller
Quality: Year: Duration: 163 Min
1163 votes, average 7.4 out of 10

Bond has left active service and is enjoying a tranquil life in Jamaica. His peace is short-lived when his old friend Felix Leiter from the CIA turns up asking for help. The mission to rescue a kidnapped scientist turns out to be far more treacherous than expected, leading Bond onto the trail of a mysterious villain armed with dangerous new technology.

Meta Info
Format : Matroska Format version : Version 4 / Version 2 File size : 1.27 GiB Duration : 2 h 43 min Overall bit rate : 1 112 kb/s Encoded date : UTC 2021-11-09 13:49:24 Writing application : mkvmerge v61.0.0 ('So') 64-bit Writing library : libebml v1.4.2 + libmatroska v1.6.4 Video ID : 1 Format : AVC Format/Info : Advanced Video Codec Format profile : [email protected] Format settings, CABAC : Yes Format settings, ReFrames : 5 frames Codec ID : V_MPEG4/ISO/AVC Duration : 2 h 43 min Bit rate : 950 kb/s Width : 1 920 pixels Height : 800 pixels Display aspect ratio : 2.40:1 Frame rate mode : Constant Frame rate : 23.976 (24000/1001) FPS Color space : YUV Chroma subsampling : 4:2:0 Bit depth : 8 bits Scan type : Progressive Bits/(Pixel*Frame) : 0.026 Stream size : 1.08 GiB (85%) Writing library : x264 core 142 r2479 dd79a61 Default : Yes Forced : No Color range : Limited Color primaries : BT.709 Transfer characteristics : BT.709 Matrix coefficients : BT.709 Audio ID : 2 Format : AAC Format/Info : Advanced Audio Codec Format profile : LC Codec ID : A_AAC Duration : 2 h 43 min Bit rate : 160 kb/s Channel(s) : 2 channels Channel positions : Front: L R Sampling rate : 48.0 kHz Frame rate : 46.875 FPS (1024 spf) Compression mode : Lossy Delay relative to video : -21 ms Stream size : 187 MiB (14%) Language : English Default : Yes Forced : No
Screenshot's
Tagline:The mission that changes everything begins…
Release:
Language:Pусский, Italiano, Français, English, Español
Budget:$ 242.000.000,00
Revenue:$ 667.000.000,00

Leave a Reply

Your email address will not be published. Required fields are marked *