Bruised (2021)

Genre: Drama
Quality: Year: Duration: 132 Min
3 votes, average 7.0 out of 10

Download Bruised (2021)

Jackie Justice is a mixed martial arts fighter who leaves the sport in disgrace. Down on her luck and simmering with rage and regret years after the fight, she’s coaxed into a brutal underground fight by her manager and boyfriend Desi and grabs the attention of a fight league promoter who promises Jackie a life back in the Octagon. But the road to redemption becomes unexpectedly personal when Manny – the son she gave up as an infant – shows up at her doorstep. A triumphant story of a fighter who reclaims her power, in and out of the ring, when everyone has counted her out.

Meta Info
Format : Matroska Format version : Version 4 / Version 2 File size : 1.17 GiB Duration : 2 h 4 min Overall bit rate : 1 347 kb/s Encoded date : UTC 2021-11-18 18:00:06 Writing application : mkvmerge v61.0.0 ('So') 64-bit Writing library : libebml v1.4.2 + libmatroska v1.6.4 Video ID : 1 Format : AVC Format/Info : Advanced Video Codec Format profile : [email protected] Format settings, CABAC : Yes Format settings, ReFrames : 9 frames Codec ID : V_MPEG4/ISO/AVC Duration : 2 h 4 min Bit rate : 1 100 kb/s Width : 1 280 pixels Height : 720 pixels Display aspect ratio : 2.40:1 Frame rate mode : Constant Frame rate : 24.000 FPS Color space : YUV Chroma subsampling : 4:2:0 Bit depth : 8 bits Scan type : Progressive Bits/(Pixel*Frame) : 0.050 Stream size : 977 MiB (82%) Writing library : x264 core 163 r3059 b684ebe0 Default : Yes Forced : No Color range : Limited Color primaries : BT.709 Transfer characteristics : BT.709 Matrix coefficients : BT.709 Audio ID : 2 Format : AAC Format/Info : Advanced Audio Codec Format profile : LC Codec ID : A_AAC Duration : 2 h 4 min Bit rate : 245 kb/s Channel(s) : 2 channels Channel positions : Front: L R Sampling rate : 48.0 kHz Frame rate : 46.875 FPS (1024 spf) Compression mode : Lossy Delay relative to video : -26 ms Stream size : 217 MiB (18%) Language : English Default : Yes Forced : No
Screenshot's
Tagline:It’s not a second chance. It’s a last chance.
Release:
Language:English
Director:

Leave a Reply

Your email address will not be published. Required fields are marked *